<?xml version="1.0" standalone="no"?> 
<!DOCTYPE svg PUBLIC "-//W3C//DTD SVG 1.1//EN" "http://www.w3.org/Graphics/SVG/1.1/DTD/svg11.dtd" >
<svg xmlns="http://www.w3.org/2000/svg">
<defs>
  <font id="alloyeditor-moono" horiz-adv-x="64">
    <font-face font-family="alloyeditor-moono"
      units-per-em="64" ascent="64"
      descent="0" />
    <missing-glyph horiz-adv-x="0" />
    <glyph glyph-name="add"
      unicode="&#xEA01;"
      horiz-adv-x="64" d=" M2.7 25.4L5.8 25.4H25.4V5.8L25.4 2.7C25.4 2.3 25.6 1.9 25.9 1.7S26.6 1.3 27.1 1.3L37 1.3C37.5 1.3 37.9 1.4 38.2 1.7C38.5 2 38.7 2.3 38.7 2.7L38.7 5.8V25.4H58.3L61.4 25.4C61.8 25.4 62.2 25.6 62.4 25.9S62.8 26.6 62.8 27.1L62.8 37C62.8 37.5 62.7 37.9 62.4 38.2C62.1 38.5 61.8 38.7 61.4 38.7L58.3 38.7H38.6V58.2L38.6 61.3C38.6 61.7 38.4 62.1 38.1 62.3C37.8 62.6 37.4 62.7 36.9 62.7L27 62.7C26.5 62.7 26.1 62.6 25.8 62.3C25.5 62 25.3 61.7 25.3 61.3L25.3 58.2V38.6H5.8L2.7 38.6C2.3 38.6 1.9 38.4 1.7 38.1C1.4 37.8 1.3 37.4 1.3 36.9L1.3 27C1.3 26.5 1.4 26.1 1.7 25.8C1.9 25.6 2.3 25.4 2.7 25.4z" />
    <glyph glyph-name="align-center"
      unicode="&#xEA02;"
      horiz-adv-x="64" d=" M54.9 34.5C54.5 34.1 54 34 53.5 34H10.5C10 34 9.5 34.2 9.1 34.6C8.7 35 8.5 35.4 8.5 36V39.9C8.5 40.4 8.7 40.9 9.1 41.3C9.5 41.7 9.9 41.9 10.5 41.9H53.5C54 41.9 54.5 41.7 54.9 41.3C55.3 40.9 55.5 40.5 55.5 39.9V36C55.5 35.4 55.3 34.9 54.9 34.5zM54.9 11.1C54.5 10.7 54.1 10.5 53.5 10.5H10.5C10 10.5 9.5 10.7 9.1 11.1C8.7 11.5 8.5 11.9 8.5 12.5V16.4C8.5 16.9 8.7 17.4 9.1 17.8C9.5 18.2 9.9 18.4 10.5 18.4H53.5C54 18.4 54.5 18.2 54.9 17.8C55.3 17.4 55.5 17 55.5 16.4V12.5C55.5 11.9 55.3 11.5 54.9 11.1zM47.1 46.3C46.7 45.9 46.3 45.7 45.7 45.7H18.3C17.8 45.7 17.3 45.9 16.9 46.3C16.5 46.7 16.3 47.1 16.3 47.7V51.6C16.3 52.1 16.5 52.6 16.9 53C17.3 53.4 17.7 53.6 18.3 53.6H45.7C46.2 53.6 46.7 53.4 47.1 53C47.5 52.6 47.7 52.2 47.7 51.6V47.7C47.6 47.1 47.4 46.7 47.1 46.3zM47.1 22.8C46.7 22.4 46.3 22.2 45.7 22.2H18.3C17.8 22.2 17.3 22.4 16.9 22.8C16.5 23.2 16.3 23.6 16.3 24.2V28.1C16.3 28.6 16.5 29.1 16.9 29.5C17.3 29.9 17.7 30.1 18.3 30.1H45.7C46.2 30.1 46.7 29.9 47.1 29.5C47.5 29.1 47.7 28.7 47.7 28.1V24.2C47.6 23.7 47.4 23.2 47.1 22.8z" />
    <glyph glyph-name="align-justified"
      unicode="&#xEA03;"
      horiz-adv-x="64" d=" M8.5 47.6V51.5C8.5 52 8.7 52.5 9.1 52.9C9.5 53.3 9.9 53.5 10.5 53.5H53.5C54 53.5 54.5 53.3 54.9 52.9C55.3 52.5 55.5 52.1 55.5 51.5V47.6C55.5 47.1 55.3 46.6 54.9 46.2C54.5 45.8 54.1 45.6 53.5 45.6H10.5C10 45.6 9.5 45.8 9.1 46.2C8.7 46.7 8.5 47.1 8.5 47.6zM8.5 35.9V39.8C8.5 40.3 8.7 40.8 9.1 41.2C9.5 41.6 9.9 41.8 10.5 41.8H53.5C54 41.8 54.5 41.6 54.9 41.2C55.3 40.8 55.5 40.4 55.5 39.8V35.9C55.5 35.4 55.3 34.9 54.9 34.5C54.5 34.1 54 34 53.5 34H10.5C10 34 9.5 34.2 9.1 34.6C8.7 34.9 8.5 35.4 8.5 35.9zM8.5 24.2V28.1C8.5 28.6 8.7 29.1 9.1 29.5C9.5 29.9 10 30 10.5 30H53.5C54 30 54.5 29.8 54.9 29.4C55.3 29 55.5 28.6 55.5 28V24.1C55.5 23.6 55.3 23.1 54.9 22.7C54.5 22.3 54.1 22.1 53.5 22.1H10.5C10 22.1 9.5 22.3 9.1 22.7C8.7 23.2 8.5 23.7 8.5 24.2zM8.5 12.5V16.4C8.5 16.9 8.7 17.4 9.1 17.8C9.5 18.2 9.9 18.4 10.5 18.4H53.5C54 18.4 54.5 18.2 54.9 17.8C55.3 17.4 55.5 17 55.5 16.4V12.5C55.5 12 55.3 11.5 54.9 11.1C54.5 10.7 54.1 10.5 53.5 10.5H10.5C10 10.5 9.5 10.7 9.1 11.1C8.7 11.5 8.5 11.9 8.5 12.5z" />
    <glyph glyph-name="align-left"
      unicode="&#xEA04;"
      horiz-adv-x="64" d=" M35.3 46.3C34.9 45.9 34.5 45.7 33.9 45.7H10.5C10 45.7 9.5 45.9 9.1 46.3C8.7 46.7 8.5 47.1 8.5 47.7V51.6C8.5 52.1 8.7 52.6 9.1 53C9.5 53.4 9.9 53.6 10.5 53.6H34C34.5 53.6 35 53.4 35.4 53C35.8 52.6 36 52.2 36 51.6V47.7C35.9 47.1 35.7 46.7 35.3 46.3zM51 34.5C50.6 34.1 50.2 33.9 49.6 33.9H10.5C10 33.9 9.5 34.1 9.1 34.5C8.7 34.9 8.5 35.3 8.5 35.9V39.8C8.5 40.3 8.7 40.8 9.1 41.2C9.5 41.6 9.9 41.8 10.5 41.8H49.6C50.1 41.8 50.6 41.6 51 41.2C51.4 40.8 51.6 40.4 51.6 39.8V35.9C51.5 35.4 51.4 34.9 51 34.5zM43.2 22.8C42.8 22.4 42.4 22.2 41.8 22.2H10.5C10 22.2 9.5 22.4 9.1 22.8C8.7 23.2 8.5 23.6 8.5 24.2V28.1C8.5 28.6 8.7 29.1 9.1 29.5C9.5 29.9 10 30 10.5 30H41.8C42.3 30 42.8 29.8 43.2 29.4C43.6 29 43.8 28.6 43.8 28V24.1C43.7 23.7 43.5 23.2 43.2 22.8zM54.9 11.1C54.5 10.7 54.1 10.5 53.5 10.5H10.5C10 10.5 9.5 10.7 9.1 11.1C8.7 11.5 8.5 11.9 8.5 12.5V16.4C8.5 16.9 8.7 17.4 9.1 17.8C9.5 18.2 9.9 18.4 10.5 18.4H53.5C54 18.4 54.5 18.2 54.9 17.8C55.3 17.4 55.5 17 55.5 16.4V12.5C55.5 11.9 55.3 11.5 54.9 11.1z" />
    <glyph glyph-name="align-right"
      unicode="&#xEA05;"
      horiz-adv-x="64" d=" M8.5 12.5V16.4C8.5 16.9 8.7 17.4 9.1 17.8C9.5 18.2 9.9 18.4 10.5 18.4H53.5C54 18.4 54.5 18.2 54.9 17.8C55.3 17.4 55.5 17 55.5 16.4V12.5C55.5 12 55.3 11.5 54.9 11.1C54.5 10.7 54.1 10.5 53.5 10.5H10.5C10 10.5 9.5 10.7 9.1 11.1C8.7 11.5 8.5 11.9 8.5 12.5zM12.5 35.9V39.8C12.5 40.3 12.7 40.8 13.1 41.2C13.5 41.6 13.9 41.8 14.5 41.8H53.6C54.1 41.8 54.6 41.6 55 41.2C55.4 40.8 55.6 40.4 55.6 39.8V35.9C55.6 35.4 55.4 34.9 55 34.5C54.5 34.1 54 34 53.5 34H14.4C13.9 34 13.4 34.2 13 34.6C12.6 34.9 12.5 35.4 12.5 35.9zM20.3 24.2V28.1C20.3 28.6 20.5 29.1 20.9 29.5C21.3 29.9 21.7 30.1 22.3 30.1H53.6C54.1 30.1 54.6 29.9 55 29.5C55.4 29.1 55.6 28.7 55.6 28.1V24.2C55.6 23.7 55.4 23.2 55 22.8C54.6 22.4 54.2 22.2 53.6 22.2H22.2C21.7 22.2 21.2 22.4 20.8 22.8C20.5 23.2 20.3 23.7 20.3 24.2zM28.1 47.6V51.5C28.1 52 28.3 52.5 28.7 52.9C29.1 53.3 29.5 53.5 30.1 53.5H53.6C54.1 53.5 54.6 53.3 55 52.9C55.4 52.5 55.6 52.1 55.6 51.5V47.6C55.6 47.1 55.4 46.6 55 46.2C54.6 45.8 54.2 45.6 53.6 45.6H30C29.5 45.6 29 45.8 28.6 46.2C28.3 46.7 28.1 47.1 28.1 47.6z" />
    <glyph glyph-name="arrow"
      unicode="&#xEA06;"
      horiz-adv-x="64" d=" M22.9 14.9C23.1 14.7 23.4 14.5 23.7 14.5C24 14.5 24.2 14.6 24.4 14.8L25.9 16.3L40.9 31.3C41.1 31.5 41.2 31.7 41.2 32C41.2 32.3 41.1 32.5 40.8 32.8L25.9 47.8L24.4 49.3C24.2 49.5 24 49.6 23.7 49.6C23.4 49.6 23.2 49.5 22.9 49.2" />
    <glyph glyph-name="audio"
      unicode="&#xEA07;"
      horiz-adv-x="64" d=" M52.154 55.6H26.284C24.078 55.6 22.284 53.806 22.284 51.6C22.284 51.6 22.278 30.95 22.28 24.094C20.95 24.958 19.372 25.47 17.668 25.47C12.978 25.47 9.176 21.668 9.176 16.978C9.176 16.32 9.268 15.688 9.408 15.074C9.694 13.484 10.454 12.058 11.736 10.754C13.388 9.076 15.534 8.26 18.302 8.26C21.486 8.26 23.924 9.314 25.756 11.482C27.674 13.754 28.608 16.456 28.608 19.748C28.608 21.45 28.63 23.878 28.648 25.53L28.668 27.346V38.664H49.774V25.928C48.45 26.782 46.88 27.292 45.186 27.292C40.496 27.292 36.694 23.49 36.694 18.8C36.694 18.158 36.778 17.54 36.912 16.94C37.1 15.988 37.484 15.102 38.03 14.26C38.66 13.27 39.472 12.41 40.444 11.754C40.786 11.52 41.16 11.34 41.536 11.162C41.672 11.096 41.798 11.016 41.938 10.958C42.208 10.848 42.502 10.776 42.79 10.694C43.076 10.61 43.356 10.518 43.654 10.464C44.126 10.376 44.636 10.338 45.152 10.312C45.164 10.312 45.174 10.308 45.186 10.308C45.188 10.308 45.188 10.308 45.19 10.308C45.396 10.298 45.58 10.26 45.794 10.26C48.978 10.26 51.418 11.314 53.25 13.484C55.168 15.756 56.1 18.458 56.1 21.748C56.1 23.45 56.122 25.878 56.14 27.53L56.16 29.346V51.6C56.154 53.806 54.36 55.6 52.154 55.6z" />
    <glyph glyph-name="bin"
      unicode="&#xEA08;"
      horiz-adv-x="64" d=" M12.538 12.01C12.538 8.016 15.786 4.768 19.78 4.768H44.22C48.214 4.768 51.462 8.016 51.462 12.01V43.692H12.538V12.01zM19.026 37.204H44.976V13.668C44.976 12.338 43.892 11.254 42.562 11.254H21.44C20.108 11.254 19.026 12.338 19.026 13.668V37.204z M41.73 53.424L41.73 56.768L22.27 56.768L22.27 53.424L12.538 53.424L12.538 47.012L51.462 47.012L51.462 53.424z M35.244 34.062H41.732V14.6H35.244V34.062z M22.27 34.062H28.758V14.6H22.27V34.062z" />
    <glyph glyph-name="bold"
      unicode="&#xEA09;"
      horiz-adv-x="64" d=" M34.2 53.5C36.2 53.5 38.1 53.3 39.8 53C41.5 52.6 42.9 52 44.1 51.2C45.3 50.4 46.2 49.3 46.9 47.9C47.6 46.5 47.9 44.8 47.9 42.8C47.9 40.6 47.4 38.8 46.4 37.4C45.4 36 44 34.8 42 33.8C44.7 33 46.6 31.7 47.9 29.8C49.2 27.9 49.9 25.6 49.9 22.9C49.9 20.7 49.5 18.9 48.6 17.3C47.8 15.7 46.6 14.4 45.2 13.4C43.8 12.4 42.1 11.7 40.3 11.2C38.5 10.7 36.6 10.5 34.7 10.5H14V53.5H34.2zM33 36.1C34.7 36.1 36.1 36.5 37.2 37.3C38.3 38.1 38.8 39.4 38.8 41.2C38.8 42.2 38.6 43 38.3 43.7C37.9 44.3 37.5 44.8 36.9 45.2C36.3 45.6 35.6 45.8 34.8 46C34 46.1 33.2 46.2 32.4 46.2H23.5V36.1H33zM33.6 17.8C34.5 17.8 35.4 17.9 36.2 18.1C37 18.3 37.8 18.6 38.4 19C39 19.4 39.6 20 39.9 20.7C40.3 21.4 40.5 22.3 40.5 23.5C40.5 25.7 39.9 27.3 38.6 28.2C37.4 29.1 35.7 29.6 33.7 29.6H23.4V17.8H33.6z" />
    <glyph glyph-name="bulleted-list"
      unicode="&#xEA0A;"
      horiz-adv-x="64" d=" M11.6 52.4H21.8V42.2H11.6V52.4zM26.9 49.9H52.4V44.8H26.9V49.9zM11.6 37.1H21.8V26.9H11.6V37.1zM26.9 34.6H52.4V29.5H26.9V34.6zM11.6 21.8H21.8V11.6H11.6V21.8zM26.9 19.2H52.4V14.1H26.9V19.2z" />
    <glyph glyph-name="camera"
      unicode="&#xEA0B;"
      horiz-adv-x="64" d=" M21.2 28.7C21.2 22.8 26 17.9 32 17.9S42.8 22.7 42.8 28.7S37.9 39.4 32 39.4S21.2 34.6 21.2 28.7zM55.2 46.9H43.6C42.8 50.2 41.9 53.5 38.6 53.5H25.4C22.1 53.5 21.3 50.2 20.4 46.9H8.8C7 46.9 5.5 45.4 5.5 43.6V13.8C5.5 12 7 10.5 8.8 10.5H55.1C56.9 10.5 58.4 12 58.4 13.8V43.6C58.5 45.4 57 46.9 55.2 46.9zM32 14C23.9 14 17.3 20.6 17.3 28.7S23.9 43.4 32 43.4S46.7 36.8 46.7 28.7S40.1 14 32 14zM55.2 37H48.6V40.3H55.2V37z" />
    <glyph glyph-name="cell"
      unicode="&#xEA0C;"
      horiz-adv-x="64" d=" M7.4 53.5V10.5H56.5V53.5H7.4zM38.1 22.8V13.6H25.9V22.8H38.1zM38.1 47.4V38.2H25.9V47.4H38.1zM22.8 47.4V38.2H10.5V47.4M10.5 35.1H22.8V25.9H10.5V35.1zM41.2 35.1H53.5V25.9H41.2V35.1zM41.2 38.1V47.3H53.5V38.1H41.2zM10.5 22.8H22.8V13.6H10.5V22.8zM41.2 13.6V22.8H53.5V13.6H41.2z" />
    <glyph glyph-name="close"
      unicode="&#xEA0D;"
      horiz-adv-x="64" d=" M49.2 21.1L47.7 22.6L38.3 32L47.7 41.4L49.2 42.9C49.4 43.1 49.5 43.3 49.5 43.6S49.4 44.1 49.1 44.4L44.4 49.1C44.2 49.3 43.9 49.5 43.6 49.5C43.3 49.5 43.1 49.4 42.9 49.2L41.4 47.7L32 38.3L22.6 47.7L21.1 49.2C20.9 49.4 20.7 49.5 20.4 49.5C20.1 49.5 19.9 49.4 19.6 49.1L14.9 44.4C14.7 44.2 14.5 43.9 14.5 43.6C14.5 43.3 14.6 43.1 14.8 42.9L16.3 41.4L25.7 32L16.3 22.6L14.8 21.1C14.6 20.9 14.5 20.7 14.5 20.4C14.5 20.1 14.6 19.9 14.9 19.6L19.6 14.9C19.8 14.7 20.1 14.5 20.4 14.5C20.7 14.5 20.9 14.6 21.1 14.8L22.6 16.3L32 25.7L41.4 16.3L42.9 14.8C43.1 14.6 43.3 14.5 43.6 14.5C43.9 14.5 44.1 14.6 44.4 14.9L49.1 19.6C49.3 19.8 49.5 20.1 49.5 20.4C49.5 20.7 49.4 20.9 49.2 21.1z" />
    <glyph glyph-name="code"
      unicode="&#xEA0E;"
      horiz-adv-x="64" d=" M25.7 21.1L24.2 22.6L14.8 32L24.2 41.4L25.7 42.9C25.9 43.1 26 43.3 26 43.6C26 43.9 25.9 44.1 25.6 44.4L20.9 49.1C20.7 49.3 20.4 49.5 20.1 49.5C19.8 49.5 19.6 49.4 19.4 49.2L17.9 47.7L2.9 32.7C2.7 32.5 2.6 32.3 2.6 32C2.6 31.7 2.7 31.5 3 31.2L17.9 16.2L19.4 14.7C19.6 14.5 19.8 14.4 20.1 14.4C20.4 14.4 20.6 14.5 20.9 14.8L25.6 19.5C25.8 19.7 26 20 26 20.3C26 20.7 25.9 20.9 25.7 21.1z M38.3 42.9L39.8 41.4L49.2 32L39.8 22.6L38.3 21.1C38.1 20.9 38 20.7 38 20.4C38 20.1 38.1 19.9 38.4 19.6L43.1 14.9C43.3 14.7 43.6 14.5 43.9 14.5C44.2 14.5 44.4 14.6 44.6 14.8L46.1 16.3L61.1 31.3C61.3 31.5 61.4 31.7 61.4 32C61.4 32.3 61.3 32.5 61 32.8L46.1 47.8L44.6 49.3C44.4 49.5 44.2 49.6 43.9 49.6C43.6 49.6 43.4 49.5 43.1 49.2L38.4 44.5C38.2 44.3 38 44 38 43.7C38 43.3 38.1 43.1 38.3 42.9z" />
    <glyph glyph-name="column"
      unicode="&#xEA0F;"
      horiz-adv-x="64" d=" M7.4 53.5V10.5H56.5V53.5H7.4zM22.8 47.4V38.2H10.5V47.4H22.8zM10.5 35.1H22.8V25.9H10.5V35.1zM41.2 35.1H53.5V25.9H41.2V35.1zM41.2 38.1V47.3H53.5V38.1H41.2zM10.5 22.8H22.8V13.6H10.5V22.8zM41.2 13.6V22.8H53.5V13.6H41.2z" />
    <glyph glyph-name="embed"
      unicode="&#xEA10;"
      horiz-adv-x="64" d=" M56.662 34.316C56.574 34.404 56.46 34.438 56.364 34.514L47.798 47.08C46.546 48.332 44.52 48.332 43.268 47.08C42.016 45.83 42.016 43.8 43.268 42.55L49.816 32L43.266 21.45C42.014 20.2 42.014 18.172 43.266 16.92C43.892 16.294 44.712 15.982 45.53 15.982S47.17 16.294 47.794 16.92L56.658 29.784C57.912 31.036 57.912 33.064 56.662 34.316z M7.338 29.684C7.426 29.596 7.54 29.562 7.636 29.486L16.202 16.92C17.454 15.668 19.48 15.668 20.732 16.92C21.984 18.17 21.984 20.2 20.732 21.45L14.184 32L20.734 42.55C21.986 43.8 21.986 45.828 20.734 47.08C20.108 47.706 19.288 48.018 18.47 48.018S16.828 47.704 16.202 47.08L7.338 34.216C6.088 32.964 6.088 30.936 7.338 29.684z M39.368 42.624L31.366 19.056C30.734 17.196 28.716 16.202 26.856 16.832S24.002 19.482 24.632 21.342L32.634 44.91C33.266 46.77 35.284 47.764 37.144 47.134C39.004 46.502 39.998 44.482 39.368 42.624z" />
    <glyph glyph-name="h1"
      unicode="&#xEA11;"
      horiz-adv-x="64" d=" M8.2 53.5H15.1V37.5H15.2C16 38.9 17.3 40.1 19 41C20.7 41.9 22.5 42.4 24.6 42.4C28 42.4 30.7 41.5 32.7 39.8C34.7 38 35.7 35.4 35.7 31.9V10.5H28.8V30.1C28.7 32.5 28.2 34.3 27.2 35.4C26.2 36.5 24.7 37.1 22.7 37.1C21.5 37.1 20.5 36.9 19.6 36.5C18.7 36.1 17.9 35.5 17.3 34.8C16.7 34.1 16.2 33.2 15.8 32.2C15.4 31.2 15.3 30.1 15.3 29V10.6H8.2V53.5z M37.9 45.7C39.3 45.7 40.8 45.8 42.1 46.1C43.5 46.3 44.7 46.7 45.8 47.3C46.9 47.9 47.8 48.6 48.6 49.5C49.4 50.4 49.9 51.5 50.1 52.8H55.7V10.6H48.2V40.3H37.9V45.7z" />
    <glyph glyph-name="h2"
      unicode="&#xEA12;"
      horiz-adv-x="64" d=" M1.7 53.5H8.6V37.5H8.7C9.5 38.9 10.8 40.1 12.5 41C14.2 41.9 16 42.4 18.1 42.4C21.5 42.4 24.2 41.5 26.2 39.7C28.2 37.9 29.2 35.3 29.2 31.8V10.4H22.3V30.1C22.2 32.5 21.7 34.3 20.7 35.4C19.7 36.5 18.2 37.1 16.2 37.1C15 37.1 14 36.9 13.1 36.5C12.2 36.1 11.4 35.5 10.8 34.8C10.2 34.1 9.7 33.2 9.3 32.2C8.9 31.2 8.8 30.1 8.8 29V10.6H1.7V53.5z M62.3 10.5H33.5C33.5 14 34.4 17 36 19.7C37.6 22.3 39.9 24.6 42.7 26.5C44.1 27.5 45.5 28.5 47 29.4C48.5 30.3 49.9 31.4 51.1 32.4C52.3 33.5 53.4 34.7 54.2 35.9C55 37.2 55.4 38.6 55.5 40.3C55.5 41.1 55.4 41.9 55.2 42.7C55 43.6 54.7 44.4 54.1 45.1C53.6 45.8 52.9 46.5 51.9 47C51 47.5 49.8 47.8 48.3 47.8C46.9 47.8 45.8 47.5 44.9 47C44 46.5 43.3 45.7 42.7 44.8C42.2 43.9 41.8 42.7 41.5 41.5C41.2 40.2 41.1 38.8 41 37.3H34.1C34.1 39.6 34.4 41.8 35 43.8C35.6 45.8 36.6 47.5 37.8 48.9C39 50.3 40.6 51.5 42.3 52.3C44.1 53.1 46.2 53.5 48.5 53.5C51.1 53.5 53.2 53.1 54.9 52.2C56.6 51.4 58 50.3 59.1 49C60.2 47.7 60.9 46.3 61.4 44.8C61.8 43.3 62.1 41.9 62.1 40.5C62.1 38.8 61.8 37.3 61.3 35.9C60.8 34.5 60.1 33.3 59.2 32.1C58.3 31 57.3 29.9 56.2 28.9C55.1 27.9 53.9 27 52.7 26.2S50.3 24.6 49.1 23.8C47.9 23 46.8 22.3 45.8 21.5C44.8 20.7 43.9 19.9 43.1 19.1C42.3 18.3 41.8 17.4 41.5 16.5H62V10.5z" />
    <glyph glyph-name="image"
      unicode="&#xEA13;"
      horiz-adv-x="64" d=" M39 14.6C39.3 14.9 39.4 15.1 39.4 15.4C39.4 15.7 39.3 16 39.1 16.2L37.5 17.9L20.9 34.6C20.7 34.8 20.4 34.9 20.1 34.9C19.8 34.9 19.5 34.7 19.3 34.5L2.7 17.9L1.1 16.2C0.9 16 0.8 15.7 0.8 15.4C0.8 15.1 1 14.8 1.2 14.6 M62.7 14.6C63 15 63.2 15.5 63.2 16C63.2 16.5 63.1 17 62.8 17.4L60.8 20.2L40.5 48.6C40.2 49 39.9 49.2 39.5 49.1C39.1 49.1 38.8 48.8 38.5 48.4L18.3 20.2L16.3 17.4C16 17 15.9 16.6 15.9 16C15.9 15.5 16.1 15 16.4 14.6 M2.1 42C2.1 37.9683213262352 5.3683213262352 34.7 9.4 34.7C13.4316786737648 34.7 16.7 37.9683213262352 16.7 42C16.7 46.0316786737648 13.4316786737648 49.3 9.4 49.3C5.3683213262352 49.3 2.1 46.0316786737648 2.1 42z" />
    <glyph glyph-name="indent-block"
      unicode="&#xEA14;"
      horiz-adv-x="64" d=" M39.6 34.8H54.4C56.168 34.8 57.6 36.232 57.6 38C57.6 39.768 56.168 41.2 54.4 41.2H39.6C37.832 41.2 36.4 39.768 36.4 38C36.4 36.232 37.832 34.8 39.6 34.8z M39.684 19.334H54.316C56.13 19.334 57.6 20.766 57.6 22.534C57.6 24.302 56.13 25.734 54.316 25.734H39.684C37.87 25.734 36.4 24.302 36.4 22.534C36.4 20.766 37.87 19.334 39.684 19.334z M54.4 10.8H9.6C7.832 10.8 6.4 9.368 6.4 7.6C6.4 5.832 7.832 4.4 9.6 4.4H54.4C56.168 4.4 57.6 5.832 57.6 7.6C57.6 9.368 56.168 10.8 54.4 10.8z M54.4 57.2H9.6C7.832 57.2 6.4 55.768 6.4 54C6.4 52.232 7.832 50.8 9.6 50.8H54.4C56.168 50.8 57.6 52.232 57.6 54C57.6 55.768 56.168 57.2 54.4 57.2z M21.006 39.45C20.374 38.818 20.056 37.988 20.056 37.158S20.372 35.5 21.006 34.866L22.674 33.198H9.6C7.832 33.198 6.4 31.766 6.4 29.998S7.832 26.798 9.6 26.798H22.676L21.008 25.13C19.742 23.864 19.742 21.812 21.008 20.548C22.274 19.282 24.324 19.282 25.59 20.548L32.75 27.708C33.358 28.316 33.7 29.14 33.7 30C33.7 30.86 33.358 31.684 32.75 32.292L25.59 39.452C24.324 40.716 22.272 40.716 21.006 39.45z" />
    <glyph glyph-name="italic"
      unicode="&#xEA15;"
      horiz-adv-x="64" d=" M30.6 41.6H37.5L31 10.5H24.1L30.6 41.6zM33.1 53.5H39.9L38.5 47H31.7L33.1 53.5z" />
    <glyph glyph-name="link"
      unicode="&#xEA16;"
      horiz-adv-x="64" d=" M50.5 50.4L50.3 50.6C46.3 54.6 39.9 54.6 35.9 50.6L26.7 41.4C22.7 37.4 22.7 31 26.7 27L26.9 26.8C27.2 26.5 27.6 26.2 27.9 25.9L31.3 29.3C30.9 29.5 30.5 29.8 30.2 30.1L30 30.3C27.9 32.4 27.9 35.9 30 38.1L39.2 47.3C41.3 49.4 44.8 49.4 47 47.3L47.2 47.1C49.3 45 49.3 41.5 47.2 39.3L43.1 35.2C43.8 33.4 44.2 31.5 44.1 29.6L50.5 36C54.5 39.9 54.5 46.4 50.5 50.4zM37 37.2C36.7 37.5 36.3 37.8 36 38.1L32.6 34.7C33 34.5 33.4 34.2 33.7 33.9L33.9 33.7C36 31.6 36 28.1 33.9 25.9L24.7 16.7C22.6 14.6 19.1 14.6 16.9 16.7L16.7 16.9C14.6 19 14.6 22.5 16.7 24.7L20.8 28.8C20.1 30.6 19.7 32.5 19.8 34.4L13.5 28C9.5 24 9.5 17.6 13.5 13.6L13.7 13.4C17.7 9.4 24.1 9.4 28.1 13.4L37.3 22.6C41.3 26.6 41.3 33 37.3 37L37 37.2z" />
    <glyph glyph-name="numbered-list"
      unicode="&#xEA17;"
      horiz-adv-x="64" d=" M25.7 19.4H51V14.3H25.7V19.4zM25.7 34.5H51V29.4H25.7V34.5zM25.7 49.7H51V44.6H25.7V49.7zM18.1 52.2V42.1H15.6V49.7H13V52.2H18.1zM15.6 31.4V29.4H20.7V26.9H13V32.7L18.1 35.1V37.1H13V39.6H20.6V33.8L15.6 31.4zM20.6 24.4V11.8H13V14.3H18.1V16.8H13V19.3H18.1V21.8H13V24.3H20.6z" />
    <glyph glyph-name="ok"
      unicode="&#xEA18;"
      horiz-adv-x="64" d=" M48.7 49.2L47.3 47.8L25.7 26.2L16.7 35.2L15.3 36.6C15.1 36.8 14.9 36.9 14.6 36.9C14.3 36.9 14.1 36.8 13.9 36.5L9.3 32C9.1 31.8 9 31.5 9 31.3C9 31 9.1 30.8 9.3 30.6L10.7 29.2L25.1 14.8C25.3 14.6 25.5 14.5 25.8 14.5C26.1 14.5 26.3 14.6 26.5 14.9L53.4 41.8L54.8 43.2C55 43.4 55.1 43.6 55.1 43.9C55.1 44.2 55 44.4 54.7 44.6L50.2 49.1C50 49.3 49.7 49.4 49.5 49.5C49.1 49.5 48.9 49.4 48.7 49.2z" />
    <glyph glyph-name="outdent-block"
      unicode="&#xEA19;"
      horiz-adv-x="64" d=" M54.4 41.2H39.6C37.832 41.2 36.4 39.768 36.4 38C36.4 36.232 37.832 34.8 39.6 34.8H54.4C56.168 34.8 57.6 36.232 57.6 38C57.6 39.768 56.168 41.2 54.4 41.2z M54.316 25.734H39.684C37.87 25.734 36.4 24.302 36.4 22.534C36.4 20.766 37.87 19.334 39.684 19.334H54.316C56.13 19.334 57.6 20.766 57.6 22.534C57.6 24.3 56.13 25.734 54.316 25.734z M54.4 10.8H9.6C7.832 10.8 6.4 9.368 6.4 7.6C6.4 5.832 7.832 4.4 9.6 4.4H54.4C56.168 4.4 57.6 5.832 57.6 7.6C57.6 9.368 56.168 10.8 54.4 10.8z M9.6 50.8H54.4C56.168 50.8 57.6 52.232 57.6 54C57.6 55.768 56.168 57.2 54.4 57.2H9.6C7.832 57.2 6.4 55.768 6.4 54C6.4 52.232 7.832 50.8 9.6 50.8z M14.508 20.55C15.774 19.284 17.826 19.284 19.09 20.55C20.356 21.816 20.356 23.866 19.09 25.132L17.422 26.8H30.498C32.266 26.8 33.698 28.232 33.698 30C33.698 31.768 32.266 33.2 30.498 33.2H17.422L19.09 34.868C19.722 35.5 20.04 36.33 20.04 37.16S19.724 38.818 19.09 39.452C17.824 40.718 15.774 40.718 14.508 39.452L7.348 32.292C6.742 31.684 6.4 30.86 6.4 30S6.742 28.316 7.348 27.708L14.508 20.55z" />
    <glyph glyph-name="quote"
      unicode="&#xEA1A;"
      horiz-adv-x="64" d=" M25.2 27.6C25.2 27.8 25.1 28 25 28.1C24.8 28.2 24.6 28.3 24.4 28.3L9.5 28.3C9.3 28.3 9.1 28.2 8.9 28.1C8.7 28 8.7 27.8 8.7 27.6L8.7 26.1V24.7V20.7V19.3L8.7 15.3C8.7 15.1 8.8 14.9 8.9 14.8C9.1 14.7 9.3 14.6 9.5 14.6H24.4C24.6 14.6 24.8 14.7 25 14.8S25.2 15.1 25.2 15.3L25.2 19.3V20.7V24.7V26.1L25.2 27.6z M29.3 49.3C29.2 49.5 29 49.5 28.8 49.5L27.3 49.5H25.9H23.9V49.5C15.4 49.3 8.8 39.6 8.8 27.3H15.4C15.4 36.5 20 42.9 24.1 42.9V42.9H25.9H27.3L28.8 42.9C29 42.9 29.2 43 29.3 43.1C29.4 43.3 29.5 43.5 29.5 43.7L29.5 48.6C29.5 48.9 29.4 49.1 29.3 49.3z M51.1 27.6C51.1 27.8 51 28 50.9 28.1C50.7 28.2 50.5 28.3 50.3 28.3L35.4 28.3C35.2 28.3 35 28.2 34.8 28.1C34.6 28 34.6 27.8 34.6 27.6L34.6 26.1V24.7V20.7V19.3L34.6 15.3C34.6 15.1 34.7 14.9 34.8 14.8C35 14.7 35.2 14.6 35.4 14.6H50.3C50.5 14.6 50.7 14.7 50.9 14.8S51.1 15.1 51.1 15.3L51.1 19.3V20.7V24.7V26.1L51.1 27.6z M55.1 49.3C55 49.5 54.8 49.5 54.6 49.5L53.1 49.5H51.7H49.7V49.5C41.2 49.3 34.6 39.6 34.6 27.3H41.2C41.2 36.5 45.8 42.9 49.9 42.9V42.9H51.7H53L54.5 42.9C54.7 42.9 54.9 43 55 43.1C55.1 43.3 55.2 43.5 55.2 43.7L55.2 48.6C55.3 48.9 55.2 49.1 55.1 49.3z" />
    <glyph glyph-name="remove"
      unicode="&#xEA1B;"
      horiz-adv-x="64" d=" M40 27.2L35.2 32L40 36.8L40.8 37.6C40.9 37.7 40.9 37.8 40.9 38C40.9 38.1 40.8 38.3 40.7 38.4L38.3 40.8C38.2 40.9 38.1 41 37.9 41C37.8 41 37.6 41 37.5 40.9L36.8 40L32 35.2L27.2 40L26.4 40.8C26.3 40.9 26.2 40.9 26 40.9C25.9 40.9 25.7 40.8 25.6 40.7L23.2 38.3C23.1 38.2 23 38.1 23 37.9C23 37.8 23 37.6 23.1 37.5L23.9 36.7L28.7 31.9L24 27.2L23.2 26.4C23.1 26.3 23.1 26.2 23.1 26C23.1 25.9 23.2 25.7 23.3 25.6L25.7 23.2C25.8 23.1 25.9 23 26.1 23C26.2 23 26.4 23 26.5 23.1L27.3 23.9L32.1 28.7L36.9 23.9L37.7 23.1C37.8 23 37.9 23 38.1 23C38.2 23 38.4 23.1 38.5 23.2L40.9 25.6C41 25.7 41.1 25.8 41.1 26C41.1 26.1 41.1 26.3 41 26.4L40 27.2z M32 49.5C22.4 49.5 14.5 41.6 14.5 32S22.4 14.5 32 14.5C41.6 14.5 49.5 22.4 49.5 32S41.6 49.5 32 49.5zM32 16.8C23.6 16.8 16.8 23.6 16.8 32S23.6 47.2 32 47.2S47.2 40.4 47.2 32S40.4 16.8 32 16.8z" />
    <glyph glyph-name="removeformat"
      unicode="&#xEA1C;"
      horiz-adv-x="64" d=" M11.2 15.9H35.4V10.5H11.2V15.9zM48.8 48.1H36.1L28.4 18.5H22.8L30.5 48.1H19.2V53.5H48.8V48.1zM50.2 10.5L44.8 15.9L39.4 10.5L36.8 13.1L42.2 18.5L36.7 24L39.3 26.6L44.7 21.2L50.1 26.6L52.7 24L47.3 18.6L52.7 13.2L50.2 10.5z" />
    <glyph glyph-name="row"
      unicode="&#xEA1D;"
      horiz-adv-x="64" d=" M7.4 53.5V10.5H56.5V53.5H7.4zM38.1 22.8V13.6H25.9V22.8H38.1zM38.1 47.4V38.2H25.9V47.4H38.1zM10.5 38.1V47.3H22.8V38.1M41.2 38.1V47.3H53.5V38.1H41.2zM10.5 22.8H22.8V13.6H10.5V22.8zM41.2 13.6V22.8H53.5V13.6H41.2z" />
    <glyph glyph-name="separator"
      unicode="&#xEA1E;"
      horiz-adv-x="64" d=" M14 49.5H5C3.3 49.5 2 48.2 2 46.5C2 44.8 3.3 43.5 5 43.5H14C15.7 43.5 17 44.8 17 46.5C17 48.2 15.7 49.5 14 49.5z M59 35.5H5C3.3 35.5 2 34.2 2 32.5C2 30.8 3.3 29.5 5 29.5H59C60.7 29.5 62 30.8 62 32.5C62 34.2 60.7 35.5 59 35.5z M36.5 49.5H27.5C25.8 49.5 24.5 48.2 24.5 46.5C24.5 44.8 25.8 43.5 27.5 43.5H36.5C38.2 43.5 39.5 44.8 39.5 46.5C39.5 48.2 38.2 49.5 36.5 49.5z M59 49.5H50C48.3 49.5 47 48.2 47 46.5C47 44.8 48.3 43.5 50 43.5H59C60.7 43.5 62 44.8 62 46.5C62 48.2 60.7 49.5 59 49.5z M14 20.5H5C3.3 20.5 2 19.2 2 17.5C2 15.8 3.3 14.5 5 14.5H14C15.7 14.5 17 15.8 17 17.5C17 19.2 15.7 20.5 14 20.5z M36.5 20.5H27.5C25.8 20.5 24.5 19.2 24.5 17.5C24.5 15.8 25.8 14.5 27.5 14.5H36.5C38.2 14.5 39.5 15.8 39.5 17.5C39.5 19.2 38.2 20.5 36.5 20.5z M59 20.5H50C48.3 20.5 47 19.2 47 17.5C47 15.8 48.3 14.5 50 14.5H59C60.7 14.5 62 15.8 62 17.5C62 19.2 60.7 20.5 59 20.5z" />
    <glyph glyph-name="strike"
      unicode="&#xEA1F;"
      horiz-adv-x="64" d=" M55.1 32V29.1H44.5C45.7 27.4 46.4 25.4 46.4 23.3C46.4 20.1 44.7 17 41.9 14.9C39.2 12.9 35.7 11.8 32 11.8S24.8 12.9 22.1 14.9C19.2 17.1 17.6 20.1 17.6 23.3H23.4C23.4 20.2 27.4 17.5 32.1 17.5S40.8 20.1 40.8 23.3C40.8 26.4 36.8 29.1 32.1 29.1H8.9V32H22.4C22.3 32.1 22.2 32.2 22.1 32.2C19.2 34.4 17.6 37.4 17.6 40.6S19.3 46.9 22.1 49C24.8 51 28.3 52.1 32 52.1S39.2 51 41.9 49C44.8 46.8 46.4 43.8 46.4 40.6H40.6C40.6 43.7 36.6 46.4 31.9 46.4S23.2 43.8 23.2 40.6S27.2 34.8 31.9 34.8C35.5 34.8 38.9 33.8 41.5 31.9H55.1z" />
    <glyph glyph-name="subscript"
      unicode="&#xEA20;"
      horiz-adv-x="64" d=" M16.1 48.2V52.3H45.6V48.2H33.3V15.4H28.5V48.2C28.5 48.2 16.1 48.2 16.1 48.2z M43.2 23.3L40.7 11.7H39L41.5 23.3H37L37.3 24.7H47.9L47.5 23.3C47.5 23.3 43.2 23.3 43.2 23.3z" />
    <glyph glyph-name="superscript"
      unicode="&#xEA21;"
      horiz-adv-x="64" d=" M10.8 44.2V48.3H40.4V44.2H28V11.3H23.2V44.2C23.2 44.2 10.8 44.2 10.8 44.2z M48.5 51.3L46 39.6H44.3L46.8 51.3H42.3L42.6 52.7H53.2L52.8 51.3C52.8 51.3 48.5 51.3 48.5 51.3z" />
    <glyph glyph-name="table"
      unicode="&#xEA22;"
      horiz-adv-x="64" d=" M7.4 53.5V10.5H56.5V53.5H7.4zM25.9 25.9V35.1H38.2V25.9H25.9zM38.1 22.8V13.6H25.9V22.8H38.1zM38.1 47.4V38.2H25.9V47.4H38.1zM22.8 47.4V38.2H10.5V47.4H22.8zM10.5 35.1H22.8V25.9H10.5V35.1zM41.2 35.1H53.5V25.9H41.2V35.1zM41.2 38.1V47.3H53.5V38.1H41.2zM10.5 22.8H22.8V13.6H10.5V22.8zM41.2 13.6V22.8H53.5V13.6H41.2z" />
    <glyph glyph-name="twitter"
      unicode="&#xEA23;"
      horiz-adv-x="64" d=" M58.5 48.4C56.6 47.5 54.5 47 52.3 46.7C54.5 48 56.3 50.2 57.1 52.7C55 51.5 52.7 50.6 50.2 50.1C48.2 52.2 45.4 53.5 42.3 53.5C36.3 53.5 31.4 48.6 31.4 42.6C31.4 41.7 31.5 40.9 31.7 40.1C22.7 40.6 14.7 44.9 9.3 51.4C8.4 49.8 7.8 47.9 7.8 45.9C7.8 42.1 9.7 38.8 12.6 36.9C10.8 37 9.1 37.4 7.7 38.3C7.7 38.3 7.7 38.2 7.7 38.2C7.7 32.9 11.4 28.6 16.4 27.6C15.5 27.4 14.5 27.2 13.5 27.2C12.8 27.2 12.1 27.3 11.5 27.4C12.9 23.1 16.9 19.9 21.6 19.9C17.9 17 13.2 15.3 8.1 15.3C7.2 15.3 6.4 15.4 5.5 15.5C10.3 12.4 16 10.6 22.1 10.6C42.1 10.6 53 27.1 53 41.5C53 42 53 42.4 53 42.9C55.2 44.3 57 46.2 58.5 48.4L58.5 48.4zM58.5 48.4" />
    <glyph glyph-name="underline"
      unicode="&#xEA24;"
      horiz-adv-x="64" d=" M14.4 14.9H49.6V10.5H14.4V14.9z M42.1 53.5V37.4C42.1 36 42 34.5 41.9 33C41.8 31.5 41.4 30.2 40.7 29C40 27.8 39 26.8 37.7 26.1C36.3 25.3 34.4 25 32 25S27.7 25.4 26.3 26.1C25 26.9 24 27.8 23.3 29C22.6 30.2 22.2 31.5 22.1 33C22 34.5 21.9 35.9 21.9 37.4V53.5H14.4V34.9C14.4 32.1 14.8 29.7 15.7 27.7C16.5 25.7 17.7 23.9 19.3 22.6C20.8 21.2 22.7 20.2 24.9 19.5C27.1 18.8 29.5 18.5 32.1 18.5C34.7 18.5 37.1 18.8 39.3 19.5C41.5 20.2 43.3 21.2 44.9 22.6C46.4 24 47.6 25.7 48.5 27.7C49.3 29.7 49.8 32.1 49.8 34.9V53.5H42.1z" />
    <glyph glyph-name="unlink"
      unicode="&#xEA25;"
      horiz-adv-x="64" d=" M32 24.8L24 16.9C21.9 14.8 18.4 14.8 16.1 16.9C14 19 14 22.5 16.1 24.6L24.3 32.5C23 33.8 21.7 35.1 20.9 35.9L12.7 27.7C8.5 23.5 8.5 16.8 12.7 12.9L13 12.6C17.2 8.4 23.9 8.4 27.8 12.6L36 20.5C34.9 21.9 33.6 23.3 32 24.8z M39.4 32L47.3 40.2C49.4 42.3 49.4 45.8 47.3 48.1C45.2 50.2 41.7 50.2 39.6 48.1L31.7 39.6C30.4 40.9 29.1 42 28.3 43L36.2 51.2C40.4 55.4 46.8 55.4 51 51.5L51.3 51.2C55.5 47 55.5 40.6 51.6 36.4L43.7 28.2C42.3 29.1 41 30.4 39.4 32L39.4 32z" />
    <glyph glyph-name="video"
      unicode="&#xEA26;"
      horiz-adv-x="64" d=" M15.386 9.218V52.382C15.386 57.512 18.83 58.742 23.038 55.114L48.078 33.532C49.822 32.03 49.822 29.57 48.078 28.068L23.038 6.486C18.83 2.858 15.386 4.086 15.386 9.218z" />
  </font>
</defs>
</svg>
